The Hardstyle Top 40 van maart 2010

Vanaf nu is iedere maand de Hardstyle Top 40  weer! Deze eerste editie in nieuwe vorm, maart 2010, is weer samengesteld op basis van verkoop van de platen. Ondersteund door niemand minder dan MC DV8 presenteert Hardstyletop40.com: De Hardstyle Top 40 van maart 2010!

Download: The Hardstyle Top 40 Maart 2010
Download: Cue-File

Tracklist:
01. Headhunterz – Psychedelic
02. B-Front & Frontliner – Magic
03. Zany – Angel Of The Sun
04. Frontliner & B-Front – 1.000.000 Stars
05. Dozer – Elixer
06. Alphaverb & Intractable One – T.B.A.
07. Brennan Heart – Revelations (Reverze 2010 Anthem)
08. Headhunterz – Dreamcatcher
09. The Beholder & Zany – To Protect And Serve (Hard Bass 2010 Anthem)
10. TNT – Tritolo (Yellow Compound Mix
11. Pavo – Back In Time
12. B-Front & Frontliner – Become The Sky
13. Alphaverb & Intractable One – Destination Nowhere
14. Zany – Mr. Monster
15. Tuneboy – Overkil
16. Tatanka – Doom’s Day
17. Beat Providers – Intensive Care
18. Dozer – Robin’s Revenge
19. DJ Isaac – Tear The Club Up (LA Mix)
20. Headhunterz – Emptiness
21. DJ Phil TY – The Winner Is (TNT Remix)
22. Frontliner & B-Front – Godz Powerrr!
23. D-Block & S-te-Fan ft. Wildstylez – The Human Soul
24. Jim Noizer – Reloaded
25. Pavo – Classic
26. Brennan Heart – Audiometric (2009 Album Mix)
27. Zany – Purify Your Senses
28. Activator – Some Easy Living
29. Psyko Punkz – After MF
30. Dutch Master – Fly Like A Rocket
31. Frontliner – The First Cut
32. Coone ft. D-Block & S-te-Fan – Crank
33. Miss Tess-X – I Need Your Lovin’
34. Zany & Dozer – Fruxaq
35. D-Block & S-te-Fan – Ride With Uz (Max Enforcer Remix)
36. Technoboy meets Ruffian – The Undersound
37. Activator – Supersonic Bass
38. Ran-D – Living For The Moment
39. Brennan Heart – Musical Impressions
40. Tatanka & Zatox – Gangsta

hs top 40 march 2010



Volg Hardtraxx op Twitter twitter.com/Hardtraxx en op Facebook: facebook.com/Hardtraxx

Bericht geplaatst op 13-03-2010 om 16:46 door Khadber | Translate:

Reacties (52)

Plaats reactie
EricNL 13-03-2010 @ 16:54:00

Die neem ik ff mee (A)..

Sander 13-03-2010 @ 17:05:43

Ff meenemen straks, maar waar zijn de tops van januari en februari? Die heb ik namelijk niet gezien voordat deze kwam.

Markos 13-03-2010 @ 17:07:31

@ Sander: FearFM is failliet gegaan en, daarom is de Top 40 even uit beeld geweest.

Op RealHardstyleRadio wordt hij nu voortaan uitgezonden dankzij Qreative.

Wesz 13-03-2010 @ 17:18:04

Niet beschikbaar :cry:

Sander 13-03-2010 @ 17:30:15

Hmm ja okee, dat FearFM failliet is gegaan wist ik, maar dat komt dus daardoor idd.

PDB1987 13-03-2010 @ 17:37:45

als k hem heb gedownload kan k hem niet afspelen. Fout in het bestand oid…
Meer mensen last van?

Grrtzzz

KSwoosh 13-03-2010 @ 17:47:46

fijn dat ie terug is :D
@PDB: ja, komt omdat er chinese tags in staan, daardoor kan WMP em niet lezen…
je kan kijken of je het zelf kan aanpassen, zo niet, dan upp ik wel ff mijn gefixte versie.

de nieuwe vocals klinken helaas voor geen meter :(

Jorge 13-03-2010 @ 18:03:23

ik kak op jouw dak :-)

PDB1987 13-03-2010 @ 18:11:06

@ Kswosh, dankje voor de info. Ik kan het zelf helaas niet aanpassen (ben met dit soort dingen niet echt handig als k eerlijk ben)
Als jij ge gefixte verie kan uploaden zou dat super zijn…
Alvast bedankt;)

Zeker zeer fijn dat het terug is!

Hardboy 13-03-2010 @ 18:12:50

Terug van weggeweest…downloaden dus :)

KSwoosh 13-03-2010 @ 19:36:56

@PDB: done :D
gefixte versie kan hier hier downloaden: http://www.megaupload.com/?d=H7BWAZ26

de reden dat ie soms niet te downloaden is, is de bestandsgrootte: duurt langer om te verwerken :)

Snor 13-03-2010 @ 22:04:31

Erg fijn dat het concept terug is!

Wel weer jammer dat ik deze top40 persoonlijk niet zo interessant vind, teveel nummers die ik niet wil horen :P
Ben benieuwd naar de vocals btw!

Dylan 13-03-2010 @ 22:22:00

Is er ook een cue file beschikbaar?

Stefan 13-03-2010 @ 23:48:04

Nu nog wachten op een cue-tje!^^

stefaneke 14-03-2010 @ 00:41:37

Net compleet geluisterd, MC DV8 is wel lache als ie d’r zo tussendoor schreeuwt :p

Pur-e. 14-03-2010 @ 13:44:51

Een van de weinige top 40′s waar geen NC nummer tussenstaat :huh: !

Mr. Monster 14-03-2010 @ 14:03:29

mooie lijst ^^

katamaran 14-03-2010 @ 18:02:40

Frontliner & b-front duidelijke winnaars van deze top 40. :)

balletje 14-03-2010 @ 19:07:52

is er ook een cue file toevallig al gemaakt?

PDB1987 14-03-2010 @ 19:12:34

@kswoosh: hij is innmiddels binnen:)
Bedant voor je moeite en tijd!

MusicIsEverything 14-03-2010 @ 20:16:01

Yeah, finally weer terug! ^^

Love_Fulfilled 15-03-2010 @ 12:01:20

Wat een verademing dat de top40 is terug gekeerd :D !!

Qre8ive 15-03-2010 @ 12:10:52

Cue file komt eraan! :)

ian 15-03-2010 @ 12:19:02

et is dit keer niet zoon goeie top 40.
ik denk tog dat emptiness hoger scoort dan mr.monster , dreamcatcher , elixer en magic

JolleNL 15-03-2010 @ 15:24:24
Markdesign 15-03-2010 @ 15:36:50

Cue file doet t bij mij ook niet :(

edit.
ben trouwens superblij dat de top40 weer terug is! Het verdriet dat FearFM gestopt is is verdwenen :D

op een toch nog mooi hardstyle jaar mensen!

Pieter 15-03-2010 @ 16:01:17

Blij dat hij terug is :D ! NU nog een werkende cue ^^ !

Qre8ive 15-03-2010 @ 16:04:01

De cue werkt prima hoor … hij is alleen gemaakt voor de download die via rapidshare te downloaden is welke dus een andere bestandsnaam heeft omdat de Top40 geen eigendom is van RHR. Moet je dus even bestandsnaam veranderen naar “Hardstyle Top40 March 2010 (www.hardstyletop40.com).mp3″ of de cue file aanpassen in kladblok.

Markdesign 15-03-2010 @ 16:58:14

als ik de bestandsnaam aanpas (die al goed was) doet hij t nog niet helaas.
dus ff in cuefile changen:)
Yo

Markdesign 15-03-2010 @ 16:59:37

in kladblok aanpassen werkt ook niet. krijg gewoon een error over index parameter

edit:

hier zit t probleem ergens volgens cuesplitter:

INDEX 01 42:32:87 at line 43

Flashed 15-03-2010 @ 17:05:14

hier precies hetzelfde probleem :(

als ik dan de laatste twee getallen verander van de tijd indicatie gaat hij gewoon verder naar de volgende regel.

JolleNL 15-03-2010 @ 18:22:45

http://www8.zippyshare.com/v/41927592/file.html

Deze werkt als je de mp3 file van Real Hardstyle Radio Top 40 zo noemt: Real_Hardstyle_Radio_-_Top_40_March_2010

Toetsie 15-03-2010 @ 18:30:15

@JolleNL

Neehoor, nog precies hetzelfde probleem..
Het valt mij wel op als je naar die tijd kijkt op “INDEX 01 42:32:87 at line 43″ natuurlijk helemaal niet klopt.
Hoe kan iets 87 sec duren? Moet het misschien 42:32:07 zijn?

edit: Ownee sorry, ik zie al dat dat wel kan, dat zijn natuurlijk de honderdste van secondes. Ben ook niet bekend met het programma..

Flashed 15-03-2010 @ 19:06:07

Helaas werkt deze .cue file ook niet.. De fout zit hem volgens mij in de honderdste van de tijds aanduiding.. Ik krijg de foutmelding van Index zoals ik eerder had aangegeven. Hoop op jullie hulp!! :)

JolleNL 15-03-2010 @ 20:46:25

Hmm raar. Als ik hem open met Winamp CuePlayer 0.57c dan werkt hij gewoon.

Markdesign 15-03-2010 @ 21:49:56

bij mij werkt hij ook niet, en ik wil hem niet met een cueplayer gaan gebruiken!
ik wil m splitten zodat ik nummers los kan luisteren op mn Creative Zen X-fi2

eQuarXz 16-03-2010 @ 16:46:30

Iemand een oplossing voor de .cue ?

Pieter 16-03-2010 @ 17:12:51

Inderdaad, simpelweg de naam veranderen helpt niet! De eerste error zit hem in..
INDEX 01 42:32:87 at line 43, maar als je deze aanpast gaat krijg je weer een error in lijn 63, en daarna in 67.. dus er moet echt een nieuwe Cue komen! Wie is hier handig mee?? :(

Undertaker69 16-03-2010 @ 20:54:48

Sowieso een erg slechte top 40 … hoop oude nummers terwijl vette nieuwe die echt in Maart zijn uitgekomen er niet opstaan …

heel apart … :mad:

Khadber 16-03-2010 @ 21:16:40

@Undertaker 69. Als de top 40 begin maart word samengesteld zijn de nummers die in Maart komen nog niet verkocht. Logisch toch?

Toetsie 16-03-2010 @ 22:44:45

Was KSwoosh niet altijd van de cue files?
Geen valse beschuldigingen hoor ^^

Pieter 17-03-2010 @ 11:02:40

In het forum topic staat overigens een .cue die iig werkt, de honderdste seconden zijn daarin afgerond, dus de timing is wel minder :( !

Stefan 17-03-2010 @ 14:26:24
Markdesign 17-03-2010 @ 15:31:53

danke danke danke!

edit:

doet weer niet;)

en bestandsnaam aanpassen helpt ook niet

Markdesign 17-03-2010 @ 15:41:33

oja, de tijden zijn niet ingevuld;)

Stefan 18-03-2010 @ 18:38:31

Oeps, verkeerde cue-file gepakt. :p

http://www.megaupload.com/?d=8H7WQO4M

Joen 18-03-2010 @ 21:09:12

Nouja gelukkig hebben we weer een top 40tje,
Heelaas zitten
39. Brennan Heart – Musical Impressions
40. Tatanka & Zatox – Gangsta
Er nog/weer in want die hebben we al vaak genoeg in de top 40s gehoord!

Niet dat ze slecht zijn ;)

jeroen 19-03-2010 @ 19:37:54

hoe kan ik deze cd het best splitten zodat ik de nummers appart kan beluisteren?
ik had iets gelezen met cue file maar ik weet niet hoe je het moet doen
dus al iemand een deftige uitleg heeft?
bedankt

D-tail 24-03-2010 @ 14:14:08

CUE splitter. google.

QFan 12-04-2010 @ 21:18:20

Wat moet je doen wanner je que splitter zegt : ”Find audio file Hardstyle Top40March ” ??

Je open zegmaar die Quesplitter, dan moet je een que file openen, maar meteen daarna een audio file. Dat snap ik niet en het lukt niet.

Ik gebruik trouwens Medieval Que splitter v1.2 software

DC 05-05-2010 @ 13:47:35

Wat een stelletje achterlijke hier, is er eindelijk een .cue file die werkt.. zijn de tijden weer verkeerd!! :cry:

Reageren



Registreer of login om te reageren.

Hier adverteren?

Hardtraxx op Facebook